<?xml version="1.0" standalone="no"?>
<!DOCTYPE svg PUBLIC "-//W3C//DTD SVG 1.1//EN" "http://www.w3.org/Graphics/SVG/1.1/DTD/svg11.dtd" >
<svg xmlns="http://www.w3.org/2000/svg">
<metadata></metadata>
<defs>
<font id="peppericonswhite" horiz-adv-x="867" >
<font-face units-per-em="1000" ascent="800" descent="-200" />
<missing-glyph horiz-adv-x="612" />
<glyph horiz-adv-x="1000" />
<glyph horiz-adv-x="1000" />
<glyph unicode="&#xd;" horiz-adv-x="1000" />
<glyph unicode=" "  horiz-adv-x="612" />
<glyph unicode="&#x09;" horiz-adv-x="612" />
<glyph unicode="&#xa0;" horiz-adv-x="612" />
<glyph unicode="&#x2000;" horiz-adv-x="433" />
<glyph unicode="&#x2001;" />
<glyph unicode="&#x2002;" horiz-adv-x="433" />
<glyph unicode="&#x2003;" />
<glyph unicode="&#x2004;" horiz-adv-x="289" />
<glyph unicode="&#x2005;" horiz-adv-x="216" />
<glyph unicode="&#x2006;" horiz-adv-x="144" />
<glyph unicode="&#x2007;" horiz-adv-x="144" />
<glyph unicode="&#x2008;" horiz-adv-x="108" />
<glyph unicode="&#x2009;" horiz-adv-x="173" />
<glyph unicode="&#x200a;" horiz-adv-x="48" />
<glyph unicode="&#x202f;" horiz-adv-x="173" />
<glyph unicode="&#x205f;" horiz-adv-x="216" />
<glyph unicode="&#x25fc;" horiz-adv-x="510" d="M0 0z" />
<glyph unicode="&#xe001;" horiz-adv-x="524" d="M0 91l343 343l-343 343l91 90l433 -433l-433 -434z" />
<glyph unicode="&#xe002;" horiz-adv-x="524" d="M0 434l434 433l90 -90l-342 -343l342 -343l-90 -91z" />
<glyph unicode="&#xe003;" d="M0 91l343 343l-343 343l91 90l433 -433l-433 -434zM343 91l342 343l-342 343l91 90l433 -433l-433 -434z" />
<glyph unicode="&#xe004;" d="M0 434l434 433l90 -90l-341 -343l341 -343l-90 -91zM343 434l434 433l90 -90l-343 -343l343 -343l-90 -91z" />
<glyph unicode="&#xe005;" d="M0 86l348 348l-348 348l86 85l348 -348l348 348l85 -85l-348 -348l348 -348l-85 -86l-348 348l-348 -348z" />
<glyph unicode="&#xe006;" d="M0 351v165h351v351h165v-351h351v-165h-351v-351h-165v351h-351z" />
<glyph unicode="&#xe007;" d="M0 352v164h867v-164h-867z" />
<glyph unicode="&#xe008;" d="M0 230l204 168l150 -156q76 120 228 274.5t285 238.5q-26 -92 -26 -203q0 -38 4 -62q-137 -85 -265 -212t-226 -278q-59 83 -157.5 143t-196.5 87z" />
<glyph unicode="&#xe009;" d="M0 434q0 44 9 86l122 -38q-4 -32 -4 -48q0 -127 89 -218l-74 -103q-67 61 -104.5 144t-37.5 177zM39 612q46 104 139 171.5t208 80.5v-127q-73 -12 -133 -56t-93 -109zM219 56l76 104q66 -33 139 -33q72 0 138 33l76 -104q-98 -56 -214 -56q-117 0 -215 56zM482 737v127 q115 -13 208 -80.5t139 -171.5l-122 -40q-33 65 -92.5 109t-132.5 56zM651 216q90 92 90 218q0 16 -4 48l121 38q9 -42 9 -86q0 -193 -141 -321z" />
<glyph unicode="&#xe00a;" d="M0 748v119h867v-119l-346 -333v-309l-175 -106v415zM270 671l164 -156l163 156h-327z" />
<glyph unicode="&#xe00b;" horiz-adv-x="748" d="M0 713q0 32 23 54.5t55 22.5h37q0 32 23 54.5t55 22.5h363q32 0 55 -22.5t23 -54.5h37q32 0 55 -22.5t23 -54.5h-749zM84 78v581h581v-581q0 -32 -22.5 -55t-54.5 -23h-427q-32 0 -54.5 23t-22.5 55zM179 108q0 -16 11 -27.5t27 -11.5t27.5 11.5t11.5 27.5v445 q0 16 -11.5 27.5t-27.5 11.5t-27 -11.5t-11 -27.5v-445zM336 108q0 -16 11 -27.5t27 -11.5t27.5 11.5t11.5 27.5v445q0 16 -11.5 27.5t-27.5 11.5t-27 -11.5t-11 -27.5v-445zM493 108q0 -16 11.5 -27.5t27.5 -11.5t27 11.5t11 27.5v445q0 16 -11 27.5t-27 11.5t-27.5 -11.5 t-11.5 -27.5v-445z" />
<glyph unicode="&#xe00c;" d="M0 0l79 240l473 473l161 -160l-474 -474zM617 779l68 68q20 20 47 20t49 -20l32 -33l33 -33q21 -18 21 -47q0 -30 -21 -49l-67 -68z" />
<glyph unicode="&#xe00d;" d="M0 521q0 143 101.5 244.5t244.5 101.5t244 -101.5t101 -244.5q0 -112 -63 -200l234 -235q5 -5 5 -14q0 -4 -7 -14q-10 -15 -22 -27q-20 -18 -29 -24l-13 -7q-8 0 -13 5l-236 236q-89 -64 -201 -64q-143 0 -244.5 100.5t-101.5 243.5zM103 521q0 -101 71 -171.5t172 -70.5 t172 71t71 171q0 101 -71 172t-172 71t-172 -71t-71 -172z" />
<glyph unicode="&#xe00e;" d="M0 372v126q0 6 4.5 12t10.5 7l105 17q4 13 22 52q-10 16 -60 77q-5 7 -5 15q0 5 5 12q14 19 55 60t54 41q6 0 14 -5l78 -60q22 11 52 21q6 65 16 105q4 15 20 15h125q18 0 20 -17l17 -103q31 -11 51 -21l79 60q5 5 15 5q8 0 13 -5q70 -64 94 -96q4 -8 4 -12q0 -7 -5 -14 q-9 -14 -29.5 -39t-30.5 -38q17 -34 24 -55l103 -17q16 -2 16 -20v-126q0 -6 -4.5 -12t-10.5 -7l-105 -16q-9 -27 -21 -51q15 -23 60 -79q5 -7 5 -14t-5 -12q-14 -19 -55 -60t-53 -41q-8 0 -16 5l-77 60q-28 -14 -52 -22q-5 -59 -17 -105q-4 -15 -20 -15h-125q-18 0 -20 17 l-16 103q-24 8 -51 22l-80 -60q-5 -5 -13 -5t-14 6q-68 59 -94 95q-4 8 -4 12q0 6 5 13q9 14 29.5 39.5t29.5 38.5q-17 34 -24 56l-103 15q-16 2 -16 20zM252 434q0 -75 53.5 -128.5t128.5 -53.5t128 53.5t53 128.5t-53 128t-128 53t-128.5 -53t-53.5 -128z" />
<glyph unicode="&#xe00f;" d="M0 257v356q0 22 15 37t37 15h763q22 0 37 -15t15 -37v-356q0 -22 -15 -37t-37 -15h-152l-1 -33l-172 -172h-286v205h-152q-22 0 -37 15t-15 37zM204 726v141h459l-1 -141h-458zM256 52h234v120h120v118h-354v-238zM700 528q0 -14 10.5 -24.5t24.5 -10.5h33q14 0 24 10.5 t10 24.5v33q0 13 -10 23.5t-24 10.5h-33q-14 0 -24.5 -10t-10.5 -24v-33z" />
<glyph unicode="&#xe010;" horiz-adv-x="843" d="M0 73v646q258 44 424 74h56v-74h332q37 -2 46 -9q7 -10 9 -47v-479v-12.5v-15v-12.5q0 -22 -3 -41q-2 -9 -11 -13.5t-14 -5t-18 -1.5h-341v-83h-58q-83 15 -422 73zM65 193l92 -5l66 162l69 -170l101 -7l-114 230l111 226l-97 -10l-66 -165l-58 154l-91 -7l92 -202z M480 128h341v545h-341v-39h117v-90h-117v-37h117v-89h-117v-36h117v-90h-117v-37h117v-90h-117v-37zM632 165v90h145v-90h-145zM632 292v90h145v-90h-145zM632 418v89h145v-89h-145zM632 544v90h145v-90h-145z" />
<glyph unicode="&#xe011;" d="M0 43v694q0 17 13 30t30 13h69v-34q0 -40 28 -68.5t68 -28.5h57q40 0 68.5 28.5t28.5 68.5v34h143v-34q0 -40 28.5 -68.5t68.5 -28.5h57q40 0 68 28.5t28 68.5v34h69q17 0 30 -13t13 -30v-694q0 -17 -13 -30t-30 -13h-781q-17 0 -30 13t-13 30zM71 71h725v484h-725v-484z M165 746v78q0 17 13 30t30 13h57q17 0 30 -13t13 -30v-78q0 -17 -13 -30t-30 -13h-57q-17 0 -30 13t-13 30zM460 219v249h249v-249h-249zM520 280h128v127h-128v-127zM559 746v78q0 17 13 30t30 13h57q17 0 30 -13t13 -30v-78q0 -17 -13 -30t-30 -13h-57q-17 0 -30 13 t-13 30z" />
<glyph unicode="&#xe012;" d="M0 43v694q0 17 13 30t30 13h69v-34q0 -40 28 -68.5t68 -28.5h57q40 0 68.5 28.5t28.5 68.5v34h143v-34q0 -40 28.5 -68.5t68.5 -28.5h57q40 0 68 28.5t28 68.5v34h69q17 0 30 -13t13 -30v-92l-47 -30q-23 -14 -83 -60h-666v-484h180q76 -27 129 -71h-337q-17 0 -30 13 t-13 30zM165 746v78q0 17 13 30t30 13h57q17 0 30 -13t13 -30v-78q0 -17 -13 -30t-30 -13h-57q-17 0 -30 13t-13 30zM245 164l146 123l108 -114q54 86 163.5 197.5t204.5 172.5q-19 -64 -19 -144q0 -30 4 -47q-210 -131 -353 -352q-42 60 -113 102.5t-141 61.5zM559 746v78 q0 17 13 30t30 13h57q17 0 30 -13t13 -30v-78q0 -17 -13 -30t-30 -13h-57q-17 0 -30 13t-13 30zM604 0q36 47 57 71h135v133q42 35 71 54v-215q0 -17 -13 -30t-30 -13h-220z" />
<glyph unicode="&#xe013;" />
<glyph unicode="&#xe014;" />
<glyph unicode="&#xe015;" />
<glyph unicode="&#xe016;" />
<glyph unicode="&#xe017;" horiz-adv-x="208" />
<glyph unicode="&#xe018;" />
<glyph unicode="&#xe019;" />
<glyph unicode="&#xe01a;" />
<glyph unicode="&#xe01b;" />
<glyph unicode="&#xe01d;" />
<glyph unicode="&#xe01e;" />
<glyph unicode="&#xe01f;" />
<glyph unicode="&#xe020;" />
<glyph unicode="&#xe021;" />
<glyph unicode="&#xe022;" />
<glyph unicode="&#xe023;" />
<glyph unicode="&#xe024;" horiz-adv-x="436" />
<glyph unicode="&#xe025;" horiz-adv-x="438" />
<glyph unicode="&#xe026;" horiz-adv-x="693" />
<glyph unicode="&#xe027;" horiz-adv-x="693" />
<glyph unicode="&#xe028;" />
<glyph unicode="&#xe029;" />
<glyph unicode="&#xe02a;" />
<glyph unicode="&#xe02b;" />
<glyph unicode="&#xe02c;" />
<glyph unicode="&#xe02d;" />
</font>
</defs>
</svg>
