<?xml version="1.0" standalone="no"?>
<!DOCTYPE svg PUBLIC "-//W3C//DTD SVG 1.1//EN" "http://www.w3.org/Graphics/SVG/1.1/DTD/svg11.dtd" >
<svg xmlns="http://www.w3.org/2000/svg">
<metadata></metadata>
<defs>
<font id="wpdatatablesiconsbase" horiz-adv-x="850" >
<font-face units-per-em="980" ascent="784" descent="-196" />
<missing-glyph horiz-adv-x="600" />
<glyph horiz-adv-x="980" />
<glyph horiz-adv-x="980" />
<glyph unicode="&#xd;" horiz-adv-x="980" />
<glyph unicode=" "  horiz-adv-x="600" />
<glyph unicode="&#x09;" horiz-adv-x="600" />
<glyph unicode="&#xa0;" horiz-adv-x="600" />
<glyph unicode="&#x2000;" horiz-adv-x="425" />
<glyph unicode="&#x2001;" />
<glyph unicode="&#x2002;" horiz-adv-x="425" />
<glyph unicode="&#x2003;" />
<glyph unicode="&#x2004;" horiz-adv-x="283" />
<glyph unicode="&#x2005;" horiz-adv-x="212" />
<glyph unicode="&#x2006;" horiz-adv-x="141" />
<glyph unicode="&#x2007;" horiz-adv-x="141" />
<glyph unicode="&#x2008;" horiz-adv-x="106" />
<glyph unicode="&#x2009;" horiz-adv-x="170" />
<glyph unicode="&#x200a;" horiz-adv-x="47" />
<glyph unicode="&#x202f;" horiz-adv-x="170" />
<glyph unicode="&#x205f;" horiz-adv-x="212" />
<glyph unicode="&#x25fc;" horiz-adv-x="500" d="M0 0z" />
<glyph unicode="&#xe001;" horiz-adv-x="514" d="M0 89l336 336l-336 336l89 89l425 -425l-425 -425z" />
<glyph unicode="&#xe002;" horiz-adv-x="514" d="M0 425l425 425l89 -89l-336 -336l336 -336l-89 -89z" />
<glyph unicode="&#xe003;" d="M0 89l336 336l-336 336l89 89l425 -425l-425 -425zM336 89l335 336l-335 336l89 89l425 -425l-425 -425z" />
<glyph unicode="&#xe004;" d="M0 425l425 425l89 -89l-335 -336l335 -336l-89 -89zM336 425l425 425l89 -89l-336 -336l336 -336l-89 -89z" />
<glyph unicode="&#xe005;" d="M0 84l341 341l-341 341l84 84l341 -341l341 341l84 -84l-341 -341l341 -341l-84 -84l-341 341l-341 -341z" />
<glyph unicode="&#xe006;" d="M0 344v162h344v344h162v-344h344v-162h-344v-344h-162v344h-344z" />
<glyph unicode="&#xe007;" d="M0 345v161h850v-161h-850z" />
<glyph unicode="&#xe008;" d="M0 225l200 165l147 -153q74 118 223.5 269t279.5 234q-26 -90 -26 -199q0 -37 4 -61q-134 -84 -259.5 -208.5t-221.5 -271.5q-58 82 -154.5 140.5t-192.5 84.5z" />
<glyph unicode="&#xe009;" d="M0 425q0 45 9 85l119 -38q-4 -32 -4 -47q0 -123 88 -213l-73 -101q-66 60 -102.5 141t-36.5 173zM38 600q45 101 136 167.5t204 79.5v-125q-72 -12 -130 -54.5t-91 -106.5zM215 55l74 102q64 -33 136 -33t136 33l74 -102q-97 -55 -210 -55t-210 55zM472 722v125 q113 -13 204 -79.5t136 -167.5l-119 -39q-33 64 -91 106.5t-130 54.5zM638 212q88 90 88 213q0 15 -4 47l119 38q9 -40 9 -85q0 -92 -36.5 -173t-102.5 -141z" />
<glyph unicode="&#xe00a;" d="M0 733v117h850v-117l-339 -326v-303l-172 -104v407zM265 658l160 -153l160 153h-320z" />
<glyph unicode="&#xe00b;" horiz-adv-x="734" d="M0 699q0 31 22 53t54 22h37q0 32 22.5 54t53.5 22h356q31 0 53.5 -22t22.5 -54h37q32 0 54 -22t22 -53h-734zM82 76v570h570v-570q0 -32 -22 -54t-54 -22h-418q-32 0 -54 22t-22 54zM175 106q0 -16 11 -27t27 -11t27 11t11 27v436q0 16 -11 27t-27 11t-27 -11t-11 -27 v-436zM329 106q0 -16 11 -27t27 -11t27 11t11 27v436q0 16 -11 27t-27 11t-27 -11t-11 -27v-436zM483 106q0 -16 11 -27t27 -11t27 11t11 27v436q0 16 -11 27t-27 11t-27 -11t-11 -27v-436z" />
<glyph unicode="&#xe00c;" d="M0 0l77 235l464 464l158 -157l-465 -465zM605 763l66 67q20 20 46 20t48 -20l32 -32l32 -33q21 -18 21 -46q0 -29 -21 -48l-66 -66z" />
<glyph unicode="&#xe00d;" d="M0 511q0 140 99.5 239.5t239.5 99.5t239 -99.5t99 -239.5q0 -109 -62 -196l230 -231q5 -5 5 -13q0 -4 -7 -14q-10 -15 -22 -27q-19 -17 -28 -23l-13 -7q-8 0 -13 5l-231 231q-88 -63 -197 -63q-140 0 -239.5 99t-99.5 239zM101 511q0 -98 69.5 -168t168.5 -70 q98 0 168 70t70 168q0 99 -70 168.5t-168 69.5q-99 0 -168.5 -69.5t-69.5 -168.5z" />
<glyph unicode="&#xe00e;" d="M0 365v123q0 6 4.5 12t10.5 7l103 16q4 16 21 51q-23 33 -59 76q-5 7 -5 14q0 5 5 12q14 19 54 59t53 40q6 0 14 -5l76 -59q24 12 51 21q6 65 16 103q4 15 20 15h122q18 0 20 -17l16 -101q27 -10 50 -21l78 59q5 5 14 5q8 0 13 -5q66 -60 92 -94q4 -8 4 -12q0 -6 -5 -13 q-9 -13 -28.5 -38t-29.5 -38q15 -30 23 -54l101 -16q16 -2 16 -20v-123q0 -6 -4.5 -12t-10.5 -7l-103 -16q-8 -24 -21 -50q22 -33 59 -77q5 -7 5 -14t-5 -12q-14 -19 -54 -59t-52 -40q-7 0 -15 5l-76 59q-24 -12 -51 -21q-6 -65 -16 -103q-4 -15 -20 -15h-122q-18 0 -20 17 l-16 101q-27 10 -50 21l-78 -59q-5 -5 -13 -5t-14 6q-64 55 -92 93q-4 8 -4 12q0 6 5 13q10 13 29.5 38t28.5 38q-15 31 -23 55l-101 15q-16 2 -16 20zM247 425q0 -73 52.5 -125.5t125.5 -52.5t125.5 52.5t52.5 125.5t-52.5 125.5t-125.5 52.5t-125.5 -52.5t-52.5 -125.5z " />
<glyph unicode="&#xe00f;" d="M0 252v349q0 22 15 36.5t36 14.5h748q21 0 36 -14.5t15 -36.5v-349q0 -21 -15 -36t-36 -15h-149l-1 -32l-169 -169h-280v201h-149q-21 0 -36 15t-15 36zM200 711v139h450l-1 -139h-449zM251 51h229v118h118v115h-347v-233zM686 517q0 -14 10 -24t24 -10h33q14 0 23.5 10 t9.5 24v33q0 14 -10 23.5t-23 9.5h-33q-14 0 -24 -9.5t-10 -23.5v-33z" />
<glyph unicode="&#xe010;" d="M0 0v850h643v-207h207v-643h-850zM88 273h105l60 98l61 -98h105l-103 157l94 147h-102l-53 -93l-54 93h-103l95 -146zM507 151h89v78h-89v-78zM507 274h89v78h-89v-78zM507 397h89v78h-89v-78zM507 520h89v79h-89v-79zM507 643h89v79h-89v-79zM642 151h157v78h-157v-78z M642 274h157v78h-157v-78zM642 397h157v78h-157v-78zM642 520h157v79h-157v-79zM682 682v168l168 -168h-168z" />
<glyph unicode="&#xe011;" d="M0 42v680q0 17 12.5 29.5t29.5 12.5h68v-33q0 -39 27.5 -67t66.5 -28h56q39 0 67 28t28 67v33h140v-33q0 -39 28 -67t67 -28h56q39 0 66.5 28t27.5 67v33h68q17 0 29.5 -12.5t12.5 -29.5v-680q0 -17 -12.5 -29.5t-29.5 -12.5h-766q-17 0 -29.5 12.5t-12.5 29.5zM70 70 h710v474h-710v-474zM162 731v77q0 17 12.5 29.5t29.5 12.5h56q17 0 29.5 -12.5t12.5 -29.5v-77q0 -17 -12.5 -29.5t-29.5 -12.5h-56q-17 0 -29.5 12.5t-12.5 29.5zM451 215v244h244v-244h-244zM510 274h125v125h-125v-125zM548 731v77q0 17 12.5 29.5t29.5 12.5h56 q17 0 29.5 -12.5t12.5 -29.5v-77q0 -17 -12.5 -29.5t-29.5 -12.5h-56q-17 0 -29.5 12.5t-12.5 29.5z" />
<glyph unicode="&#xe012;" d="M0 42v680q0 17 12.5 29.5t29.5 12.5h68v-33q0 -39 27.5 -67t66.5 -28h56q39 0 67 28t28 67v33h140v-33q0 -39 28 -67t67 -28h56q39 0 66.5 28t27.5 67v33h68q17 0 29.5 -12.5t12.5 -29.5v-90l-46 -29q-41 -27 -82 -59h-652v-474h176q74 -26 126 -70h-330 q-17 0 -29.5 12.5t-12.5 29.5zM162 731v77q0 17 12.5 29.5t29.5 12.5h56q17 0 29.5 -12.5t12.5 -29.5v-77q0 -17 -12.5 -29.5t-29.5 -12.5h-56q-17 0 -29.5 12.5t-12.5 29.5zM240 161l143 120l106 -111q53 84 160.5 193t200.5 169q-19 -62 -19 -141q0 -29 4 -46 q-97 -60 -187 -149.5t-159 -195.5q-42 58 -111 100t-138 61zM548 731v77q0 17 12.5 29.5t29.5 12.5h56q17 0 29.5 -12.5t12.5 -29.5v-77q0 -17 -12.5 -29.5t-29.5 -12.5h-56q-17 0 -29.5 12.5t-12.5 29.5zM592 0q36 48 56 70h132v130q40 33 70 53v-211q0 -17 -12.5 -29.5 t-29.5 -12.5h-216z" />
<glyph unicode="&#xe013;" d="M0 0v850h643v-207h207v-643h-850zM19 70q0 -18 12 -25l20 -11q13 -6 27 -6q38 0 83.5 48.5t105.5 153.5q146 49 291 69q53 -29 112 -48t99 -19q15 0 25 3q11 3 25 17q15 16 12 47q-3 23 -14 34q-27 25 -113 25q-59 0 -123 -10q-42 26 -59 42q-70 64 -108 167 q26 90 26 177q0 24 -3 36q-12 52 -47 52h-14q-17 0 -30.5 -8.5t-17.5 -22.5q-7 -21 -7 -52q0 -62 36 -203l-7 -18q-23 -57 -71 -148l-2 -6q-36 -69 -74 -134q-54 -24 -70 -33q-39 -23 -73.5 -57t-39.5 -61q-1 -3 -1 -9zM67 66q8 21 35 54t64 64l20 18q-73 -116 -119 -136z M290 276l35 64q32 61 61 133q41 -74 101 -125l16 -13q-115 -23 -213 -59zM378 738q0 25 4 48q0 7 3 10q8 0 15 -10.5t9 -27.5q1 -8 1 -26q0 -62 -19 -100q-3 8 -8 46.5t-5 59.5zM656 311q40 2 54 2q46 0 67 -7q31 -10 31 -18q0 -13 -23 -13q-46 0 -129 36zM682 682v168 l168 -168h-168z" />
<glyph unicode="&#xe014;" d="M0 0v850h643v-207h207v-643h-146l114 332l-54 2l-99 -297l-97 297h-54l112 -334h-129q33 27 33 74q0 20 -6 35.5t-19.5 28t-22 18t-26.5 16.5l-36 20q-19 11 -27.5 16.5t-19 18t-10.5 25.5q0 22 15.5 34t42.5 12q25 0 84 -17v48q-33 11 -81 11q-52 0 -85 -23.5t-33 -68.5 q0 -9 1.5 -17t5 -15t6 -12.5t9 -11.5t9.5 -9t11.5 -8.5t11 -7t12.5 -7t11 -6.5l33 -19q1 -1 10 -6t11 -6.5t9.5 -6.5t9.5 -7.5t7 -8t6.5 -10t3 -11t1.5 -13.5q0 -26 -19.5 -39t-48.5 -13q-51 0 -94 26v-40h-45v42q-42 -28 -83 -28q-95 0 -95 154q0 130 76 130q56 0 56 -61 h60q0 46 -30.5 74.5t-83.5 28.5q-135 0 -135 -180q0 -114 56 -160h-88zM682 682v168l168 -168h-168z" />
<glyph unicode="&#xe015;" d="M0 0v643h256v-500h273v-143h-529zM321 207v643h321v-208h208v-435h-529zM681 681v169l169 -169h-169z" />
<glyph unicode="&#xe016;" d="M0 425v142h142v142h708v-567h-567v141h-141v142h-142zM283 425h142v-142h142v142h-142v142h-142v-142z" />
</font>
</defs>
</svg>
