<?xml version="1.0" standalone="no"?>
<!DOCTYPE svg PUBLIC "-//W3C//DTD SVG 1.1//EN" "http://www.w3.org/Graphics/SVG/1.1/DTD/svg11.dtd">
<svg xmlns="http://www.w3.org/2000/svg">
<metadata>Generated by Fontastic.me</metadata>
<defs>
<font id="better-studio-admin-icons" horiz-adv-x="512">
<font-face font-family="better-studio-admin-icons" units-per-em="512" ascent="480" descent="-32"/>
<missing-glyph horiz-adv-x="512" />

<glyph glyph-name="betterstudio" unicode="&#57344;" d="M340 506l0-168-167 0 0-167-166 0 0-168 499 0 0 503z"/>
<glyph glyph-name="header" unicode="&#57345;" d="M-8 517l3-522 522 0-2 522z m43-483l0 288 439 0 0-288z"/>
<glyph glyph-name="footer" unicode="&#57346;" d="M517-5l-2 522-523 0 3-522z m-43 483l0-288-439 0 0 288z"/>
<glyph glyph-name="sidebar" unicode="&#57347;" d="M516 518l-522 0 0-524 522 0z m-483-42l288 0 0-439-288 0z"/>
<glyph glyph-name="page-text" unicode="&#57348;" d="M0 511l1-510 511 0 0 510z m42-468l0 428 428 0 0-428z m46 389l338 0 0-103-338 0z m19-132l299 0 0-27-299 0z m0-57l128 0 0-27-128 0z m0-64l104 0 0-94-104 0z m128-6l171 0 0-27-171 0z m0-59l171 0 0-26-171 0z"/>
<glyph glyph-name="link" unicode="&#57349;" d="M512 398l0 113-512 0 1-510 118 0 0 42-77 0 0 428 428 0 0-73z m-14-120l-44 43c-20 19-51 19-70 0l-49-47c-19-19-19-50 0-69l28 27c-3 8 0 18 7 25l31 30c10 9 26 9 35 0l26-26c10-10 10-25 0-35l-31-30c-6-6-17-10-25-8l-27-26c19-19 50-19 70 0l48 47c20 19 20 50 1 69z m-178-173c2-9-1-19-8-26l-29-28c-10-10-26-10-36 0l-26 26c-10 10-10 26 0 35l29 29c7 6 17 10 25 7l28 28c-19 19-51 19-71 0l-47-46c-20-19-20-51 0-70l44-44c20-20 52-20 72 0l47 45c19 20 19 51 0 71z m-30 12c6-7 17-7 23 0l80 79c7 7 7 18 0 24-6 7-17 7-23 1l-80-80c-7-7-7-17 0-24z"/>
<glyph glyph-name="archive" unicode="&#57350;" d="M512 398l0 113-512 0 1-510 118 0 0 42-77 0 0 428 428 0 0-73z m-32-187l-260 0c-3 0-6-3-6-7l0-196c0-4 3-7 6-7l260 0c4 0 7 3 7 7l0 196c0 4-3 7-7 7z m-86-73c0-3-2-5-5-5l-78 0c-3 0-5 2-5 5l0 22c0 3 2 5 5 5l78 0c3 0 5-2 5-5z m111 174l-310 0c-4 0-7-3-7-7l0-65c0-4 3-7 7-7l310 0c4 0 7 3 7 7l0 65c0 4-3 7-7 7z"/>
<glyph glyph-name="arrow-bottom" unicode="&#57351;" d="M512 398l0 113-512 0 1-510 118 0 0 42-77 0 0 428 428 0 0-73z m-140-392c3-3 7-5 11-5 5 0 9 2 12 5l112 112c7 7 7 17 0 24l-15 15c-7 6-17 6-24 0l-57-58 0 217c0 9-8 17-17 17l-22 0c-9 0-16-8-16-17l0-217-58 58c-6 6-17 6-23 0l-16-15c-6-7-6-17 0-24z"/>
<glyph glyph-name="arrow-top" unicode="&#57352;" d="M512 398l0 113-512 0 1-510 118 0 0 42-77 0 0 428 428 0 0-73z m-117-70c-3 3-8 5-12 5-4 0-8-2-11-5l-113-113c-6-6-6-16 0-23l16-15c6-7 17-7 23 0l58 57 0-216c0-9 7-17 16-17l22 0c9 0 17 8 17 17l0 217 57-58c7-7 17-7 24 0l15 15c7 7 7 17 0 24z"/>
<glyph glyph-name="export" unicode="&#57353;" d="M512 398l0 113-512 0 1-510 118 0 0 42-77 0 0 428 428 0 0-73z m-13-352l-242 0c-7 0-13-6-13-14l0-17c0-8 6-14 13-14l242 0c7 0 13 6 13 14l0 17c0 8-6 14-13 14z m-112 286c-2 2-6 4-9 4-3 0-7-2-9-4l-92-92c-5-5-5-13 0-19l13-12c5-6 14-6 19 0l47 47 0-177c0-7 6-13 13-13l18 0c7 0 13 6 13 13l0 177 47-47c6-5 14-5 19 0l13 12c5 6 5 14 0 19z"/>
<glyph glyph-name="download" unicode="&#57354;" d="M512 398l0 113-512 0 1-510 118 0 0 42-77 0 0 428 428 0 0-73z m-13-352l-242 0c-7 0-13-6-13-14l0-17c0-8 6-14 13-14l242 0c7 0 13 6 13 14l0 17c0 8-6 14-13 14z m-130 24c2-3 6-4 9-4 4 0 7 1 10 4l91 91c5 5 5 14 0 19l-13 13c-5 5-13 5-19 0l-47-47 0 176c0 8-6 14-13 14l-18 0c-7 0-13-6-13-14l0-176-47 47c-5 5-14 5-19 0l-13-13c-5-5-5-14 0-19z"/>
<glyph glyph-name="image" unicode="&#57355;" d="M512 398l0 113-512 0 1-510 118 0 0 42-77 0 0 428 428 0 0-73z m-213-133c0-31-25-55-55-55-30 0-54 24-54 55 0 30 24 54 54 54 30 0 55-24 55-54z m-65-176l-51-60c-13-15-7-28 12-28l294 0c20 0 28 14 18 32l-88 158c-10 17-26 18-37 1l-51-82c-11-17-32-22-47-12-15 10-37 6-50-9z"/>
<glyph glyph-name="slider" unicode="&#57356;" d="M512 398l0 113-512 0 0-510 119 0 0 42-77 0 0 428 428 0 0-73z m-29-170l0-198-238 0 0 198 238 0m29 29l-295 0 0-256 295 0z m-247-187l199 0-60 79-55-54-36 29z m60 128c-11 0-20-8-20-19 0-11 9-20 20-20 11 0 19 9 19 20 0 11-8 19-19 19z m-169 123l0-253 33 0 0 218 258 0 0 35z"/>
<glyph glyph-name="slider-new" unicode="&#57357;" d="M512 398l0 113-512 0 0-510 119 0 0 42-77 0 0 428 428 0 0-73z m-29-170l0-198-238 0 0 198 238 0m29 29l-295 0 0-256 295 0z m-356 64l0-253 33 0 0 218 258 0 0 35z"/>
<glyph glyph-name="paint" unicode="&#57358;" d="M512 398l0 113-512 0 0-510 119 0 0 42-77 0 0 428 428 0 0-73z m-336-262c-7-8-7-19 0-26l9-10 23 9-9-22 47-47 36 21-18-39 15-15c7-8 19-8 26 0l85 84-129 129z m325 196l0 0c-9 9-20 12-33 10-25-5-52-32-71-74-5-11-13-18-23-20-20-3-45 11-59 26-3 3-9 3-12 0l-15-15 23-23c3-3 3-8 0-11-3-3-8-3-11 0l-23 23-5-6c-3-3-3-8 0-11l128-129c3-3 8-3 12 0l31 32c3 3 3 8 0 11-14 15-29 40-25 59 2 11 8 18 20 24 41 19 69 45 73 71 3 12-1 24-10 33z m-14-41c-5-6-14-6-19 0-5 5-5 14 0 19 5 5 14 5 19 0 6-5 6-14 0-19z"/>
<glyph glyph-name="paint1" unicode="&#57359;" d="M512 398l0 113-512 0 0-510 119 0 0 42-77 0 0 428 428 0 0-73z m-7-127c-1 1-2 2-4 3-2 0-3-1-4-2-6-9-14-12-23-15-8-3-15-5-24-11-11-9-16-20-14-31l0 0c-5 7-10 13-16 19-26 28-63 44-100 45-2 0-3 0-5 0-42 0-82-18-110-51-28-33-40-75-34-116 0-4 1-7 2-11 10-45 37-79 72-94 9-4 18-6 26-6 22 0 41 12 52 32 4 8 7 15 8 23 1 5 1 10 0 14 0 5-1 9 0 14 2 10 9 16 19 16 3 0 6 0 9-1-4-7-7-13-10-18-5-13-10-23-12-30-1-5-4-17 4-23 3-2 6-3 10-2 3 0 13 2 40 34 8 8 16 18 24 29 22 7 39 25 43 46 1 5 2 11 2 17 8 12 15 24 22 36 0 0 0 1 0 1 11 3 19 11 25 22 7 17 7 38-2 60z m-116-78c-4-6-11-10-18-10-3 0-7 1-10 3-5 3-8 8-9 13-2 5-1 11 2 15 4 6 10 10 17 10 4 0 8-1 11-3 5-3 8-8 9-13 1-5 0-11-2-15z m26-37c10 15 21 30 31 44 2-2 4-3 6-5 3-2 7-4 10-5-8-15-18-30-29-47-19-27-38-52-55-71-9-11-17-19-23-24 2 8 7 18 13 31 12 22 28 50 47 77z m-180 0c-4 0-8 1-11 3-5 3-8 8-9 13-1 5 0 11 3 15 3 6 10 10 17 10 4 0 7-1 11-3 9-6 12-19 6-28-4-6-10-10-17-10z m-22-45c4 6 11 10 18 10 3 0 7-1 10-3 5-3 8-8 9-13 2-5 1-11-2-15-4-6-10-10-17-10-4 0-8 1-11 3-5 3-8 8-9 13-1 5 0 11 2 15z m65 121c4 6 11 9 18 9 3 0 7-1 10-3 10-6 13-18 7-28-4-6-10-9-17-9-4 0-8 1-11 3-5 3-8 7-9 13-1 5 0 10 2 15z"/>
<glyph glyph-name="paint2" unicode="&#57360;" d="M512 398l0 113-512 0 0-510 119 0 0 42-77 0 0 428 428 0 0-73z m-98-348c0-27 22-49 49-49 27 0 49 22 49 49 0 27-22 49-49 49-27 0-49-22-49-49z m0 118c0-27 22-49 49-49 27 0 49 22 49 49 0 26-22 48-49 48-27 0-49-22-49-48z m-122-118c0-27 22-49 49-49 27 0 49 22 49 49 0 27-22 49-49 49-27 0-49-22-49-49z m179 284c-2 1-4 2-6 1-7-3-27-14-81-57-38-31-83-70-110-96-14-14-27-28-38-41-1-1-2-3-2-4 1-2 2-3 3-4 4-3 8-6 12-10 5-5 9-11 11-17 1-1 2-3 4-3 1 0 3 0 4 1 15 11 30 25 44 38 27 27 67 70 100 107 45 52 57 72 60 79 1 2 0 4-1 6z m-285-250c-2-9-3-17-9-24-2-1-2-3-2-5 1-2 3-3 5-4 25-5 47 0 61 14 15 14 15 35 0 50-7 8-14 12-22 12-8 1-14-4-18-7-3-3-6-7-8-12-4-9-6-17-7-24z"/>
<glyph glyph-name="images" unicode="&#57361;" d="M512 398l0 113-512 0 0-510 119 0 0 42-77 0 0 428 428 0 0-73z m-274-171c-1 7 4 13 11 14l175 16c7 1 14-5 14-12l14-156c1-7-4-13-11-13l-175-16c-7-1-14 4-14 11z m16-225l208 18c7 1 13 7 12 14l-21 228c0 6-7 12-13 11l-209-19c-7-1-12-7-11-14l21-227c0-7 6-12 13-11m248 293l-206 39c-7 1-13-3-14-10l-8-39c-1-7 15-9 16-2l5 24c1 6 8 11 15 10l173-33c7-1 11-8 10-15l-16-84c-1-6-2-18-1-25l3-34c1-7 2-7 4-1l29 156c1 7-3 13-10 14"/>
<glyph glyph-name="share-alt" unicode="&#57362;" d="M512 398l0 113-512 0 0-510 119 0 0 42-77 0 0 428 428 0 0-73z m-57-282c-14 0-26-4-35-12l-101 60c1 3 1 7 1 10 0 3 0 6-1 9l101 60c9-7 21-12 35-12 31 0 57 26 57 58 0 32-26 57-57 57-32 0-58-25-58-57 0-3 0-7 1-10l-100-60c-10 8-22 12-35 12-32 0-58-25-58-57 0-32 26-58 58-58 13 0 25 5 35 12l100-60c-1-3-1-6-1-9 0-32 26-58 58-58 31 0 57 26 57 58 0 32-26 57-57 57z"/>
<glyph glyph-name="share" unicode="&#57363;" d="M512 398l0 113-512 0 0-510 119 0 0 42-77 0 0 428 428 0 0-73z m-4-198l-95 96c-2 2-5 3-8 3-3 0-6-1-9-3-2-3-3-6-3-9l0-47-42 0c-88 0-143-25-163-75-6-17-10-38-10-62 0-21 8-49 24-84 0-1 1-3 2-5 1-2 2-4 3-5 0-2 1-3 2-5 1-2 3-3 5-3 2 0 3 1 5 2 1 1 1 3 1 5 0 1 0 3 0 5-1 2-1 3-1 4 0 9-1 16-1 23 0 12 1 24 3 34 3 10 6 18 10 25 3 8 8 14 14 19 6 6 13 10 20 13 7 4 15 6 25 8 9 2 19 3 28 4 10 1 21 1 33 1l42 0 0-47c0-4 1-6 3-9 3-2 6-3 9-3 3 0 6 1 8 3l95 95c3 3 4 6 4 9 0 3-1 6-4 8z"/>
<glyph glyph-name="typography" unicode="&#57364;" d="M512 398l0 113-512 0 0-510 119 0 0 42-77 0 0 428 428 0 0-73z m0-73c0 6-5 10-10 10l-312 0c-6 0-10-4-10-10l0-58c0-5 4-10 10-10l24 0c3 0 6 1 8 4l18 22 74 0 0-271c0-6 5-11 11-11l42 0c5 0 10 5 10 11l0 271 75 0 18-22c2-3 5-4 8-4l24 0c2 0 5 1 7 3 2 2 3 5 3 7z"/>
<glyph glyph-name="global" unicode="&#57365;" d="M512 398l0 113-512 0 0-510 119 0 0 42-77 0 0 428 428 0 0-73z m34-133c-19 19-41 34-66 44-25 11-52 16-80 16-27 0-54-5-80-16-24-10-46-25-65-44-19-19-33-41-44-65-10-25-16-52-16-80 0-28 6-55 16-80 11-24 25-46 44-65 19-19 41-34 65-44 26-11 53-16 80-16 28 0 55 5 80 16 25 10 47 25 66 44 18 19 33 41 44 65 10 25 16 52 16 80 0 28-6 55-16 80-11 24-26 46-44 65z m-34-130c-1 26-5 51-10 74 13 5 26 12 37 19 20-26 33-58 36-93z m-97 158c20-8 38-32 50-65-16-4-33-6-50-7z m-29 0l0-72c-18 1-34 3-50 7 12 33 30 57 50 65z m-59-93c19-5 38-8 59-9l0-56-67 0c1 23 4 45 8 65z m59-95l0-56c-21-1-40-4-59-9-4 20-7 42-8 65z m0-86l0-72c-20 8-38 32-50 65 16 3 32 6 50 7z m29-72l0 72c17-1 34-4 50-7-12-33-30-57-50-65z m58 93c-18 5-38 8-58 9l0 56 67 0c-1-23-4-45-9-65z m-58 95l0 56c20 1 40 4 58 9 5-20 8-42 9-65z m103 115c-7-5-16-9-25-13-2 7-5 14-8 20-4 8-8 16-13 23 17-7 33-18 46-30z m-189 30c-5-7-9-15-13-23-3-6-6-13-8-19-9 3-18 7-25 12 13 12 29 23 46 30z m-67-52c11-7 24-14 37-19-6-23-9-48-10-74l-63 0c2 35 16 67 36 93z m27-123c1-26 4-51 10-74-13-5-26-12-37-19-20 26-34 58-36 93z m-6-115c7 5 16 9 25 12 2-6 5-13 8-19 4-8 8-16 13-23-17 7-33 18-46 30z m189-30c5 7 9 15 13 23 3 6 6 13 8 19 9-3 18-8 25-12-13-12-29-23-46-30z m67 52c-11 7-24 14-37 19 5 23 9 48 10 74l63 0c-3-35-16-67-36-93z"/>
<glyph glyph-name="gears" unicode="&#57366;" d="M512 398l0 113-512 0 0-510 119 0 0 42-77 0 0 428 428 0 0-73z m-9-264l-23 4c-1 7-4 14-7 20l15 18c3 4 3 9 0 13l-10 10c-3 4-8 5-13 2l-19-12c-9 6-19 10-29 13l-4 23c-1 5-5 9-10 9l-14 0c-5 0-9-4-10-9l-4-23c-9-2-17-6-24-10l-19 13c-4 3-10 3-13-1l-10-10c-3-3-4-9-1-13l13-18c-4-8-8-16-10-25l-23-4c-5 0-8-5-8-10l0-13c0-5 3-10 8-10l23-4c2-7 5-14 8-21l-15-18c-3-4-3-9 1-13l9-10c3-4 9-5 13-2l20 12c8-5 18-10 28-12l4-23c1-5 5-9 10-9l14 0c5 0 9 4 10 9l4 23c8 2 16 5 24 10l19-14c4-3 10-2 13 1l10 10c4 3 4 9 1 13l-14 19c5 8 8 16 10 25l24 4c4 0 8 5 8 10l0 13c0 5-4 10-9 10z m-107-60c-24 0-43 19-43 43 0 25 19 44 43 44 24 0 44-19 44-44 0-24-20-43-44-43z m95 257l-10-6c-3 2-6 4-9 6l0 12c0 2-2 5-4 5l-7 2c-3 0-5-1-6-4l-4-11c-6 0-11-1-16-3l-9 8c-2 2-5 2-7 0l-5-4c-2-2-3-4-2-7l6-10c-3-4-5-8-7-12l-12 0c-2 0-4-2-5-5l-1-7c0-2 1-5 4-5l11-4c0-4 2-9 3-13l-8-9c-2-1-2-4 0-6l4-6c1-2 4-3 7-1l10 5c3-2 6-4 10-6l-1-12c0-2 2-4 4-5l7-1c3-1 5 0 6 3l4 11c6 0 11 2 16 4l9-9c1-1 4-1 6 0l6 4c2 2 3 5 1 7l-5 11c3 3 5 7 7 11l12 0c2 0 5 2 5 5l1 7c0 2-1 5-4 5l-11 4c-1 5-2 9-4 13l9 9c1 2 1 5 0 7l-4 5c-2 2-5 3-7 2z m-25-58c-10-7-24-6-31 4-8 10-6 24 4 32 10 7 24 5 31-5 8-10 6-24-4-31z m-205-60l-12-6c-3 2-6 4-10 6l1 13c0 3-2 6-5 6l-7 2c-3 0-6-1-7-4l-5-12c-6 0-11-2-17-4l-10 9c-2 2-5 2-7 0l-6-4c-2-2-3-5-2-7l6-12c-3-4-5-8-7-13l-13 0c-3 0-5-2-6-5l-1-8c0-3 1-5 4-6l13-4c0-5 1-10 3-14l-9-10c-2-2-2-5 0-7l4-7c2-2 5-2 8-1l11 6c3-3 7-5 11-7l-1-13c0-2 2-5 5-5l7-2c3-1 6 1 7 4l5 12c5 0 11 2 16 4l10-9c2-2 5-2 7-1l7 5c2 2 3 5 1 7l-6 12c3 4 6 8 8 13l13 0c3 0 5 2 6 5l1 8c0 2-2 5-4 6l-13 4c-1 5-2 10-4 14l9 10c2 2 2 5 1 7l-5 6c-2 2-5 3-7 2z m-28-64c-11-8-26-6-34 5-8 11-6 26 5 35 10 8 26 6 34-5 8-11 6-26-5-35z"/>
<glyph glyph-name="css3" unicode="&#57367;" d="M512 398l0 113-512 0 0-510 119 0 0 42-77 0 0 428 428 0 0-73z m-292-87l-11-57 234 0-7-37-235 0-11-58 234 0-13-65-94-32-82 32 6 28-58 0-14-69 136-52 156 52 51 258z"/>
<glyph glyph-name="js" unicode="&#57368;" d="M512 398l0 113-512 0 0-510 119 0 0 42-77 0 0 428 428 0 0-73z m-6-308c4-9 6-17 6-28 0-18-5-32-17-42-10-11-24-17-42-19-7-1-21-1-28 0-29 4-50 17-64 40-1 3-2 4-1 4 0 1 34 20 35 20 0 0 1-1 3-3 10-16 23-23 40-23 11 0 19 3 24 8 2 2 4 4 4 5 4 8 2 17-3 23-5 4-12 8-30 16-14 6-22 10-28 13-22 14-33 32-33 56 0 17 6 30 16 41 11 10 25 16 42 18 6 0 7 0 14 0 14-1 24-5 34-11 5-4 13-12 17-18 2-3 4-6 4-6 0 0-32-21-34-22 0 0-1 1-2 4-1 1-4 5-6 7-6 5-11 7-20 7-8 1-12-1-17-6-3-3-4-6-4-11-1-6 1-11 5-15 4-5 10-8 29-16 24-10 36-18 45-27 5-5 8-9 11-15z m-193 126l22 0 0-79c0-52 0-80 0-82-4-25-15-42-35-50-17-6-39-7-57-1-16 6-30 18-38 34l-1 2 17 11c10 6 18 11 18 11 0 0 1-2 3-4 8-14 14-19 26-19 8 0 13 2 17 6 2 2 4 5 5 10l1 4 0 79 0 78c0 0 22 0 22 0z"/>
<glyph glyph-name="analytics" unicode="&#57369;" d="M512 398l0 113-512 0 0-510 119 0 0 42-77 0 0 428 428 0 0-73z m-351-323c6 0 12 2 17 5l43-36c0-2-1-3-1-5 0-21 17-38 38-38 21 0 38 17 38 38 0 6-2 12-4 17 21 31 47 71 63 95 3 0 5-1 8-1 9 0 17 3 23 9 15-9 33-19 49-29 0 0 0-1 0-1 0-21 17-38 38-38 21 0 38 17 38 38 0 21-17 38-38 38-9 0-17-4-24-10l-49 29c0 0 1 1 1 2 0 21-17 38-38 38-21 0-38-17-38-38 0-7 2-14 5-19-19-30-45-69-62-94-3 1-6 2-10 2-8 0-15-3-21-7-12 10-27 22-40 33 1 4 2 7 2 10 0 21-17 38-38 38-21 0-38-17-38-38 0-21 17-38 38-38z"/>
<glyph glyph-name="refresh" unicode="&#57370;" d="M512 398l0 113-512 0 0-510 119 0 0 42-77 0 0 428 428 0 0-73z m-214-180c33 33 83 38 121 15-13-13-28-28-28-28-10-12 2-20 8-19l69 0c4 0 7 0 7 0 0 0 3 0 7 0l13 0c4 0 7 3 7 6l0 96c0 9-9 17-19 7 0 0-17-16-28-27-58 43-140 38-192-15-31-30-45-71-43-111l49 0c-2 28 8 55 29 76z m164-59c2-28-7-55-28-76-33-33-84-38-122-15 13 13 28 28 28 28 11 12-1 20-7 19l-70 0c-3 0-6 0-6 0 0 0-3 0-7 0l-14 0c-3 0-6-3-6-6l0-96c-1-9 9-17 19-7 0 0 16 16 28 27 58-43 139-38 192 15 30 30 45 71 43 111l-50 0z"/>
<glyph glyph-name="goal" unicode="&#57371;" d="M512 398l0 113-512 0 0-510 119 0 0 42-77 0 0 428 428 0 0-73z m-161-74c-89 0-162-72-162-161 0-89 73-162 162-162 89 0 161 73 161 162 0 89-72 161-161 161z m0-279c-65 0-118 53-118 118 0 65 53 117 118 117 65 0 118-52 118-117 0-65-53-118-118-118z m0 218c-56 0-101-45-101-100 0-56 45-101 101-101 55 0 100 45 100 101 0 55-45 100-100 100z m0-157c-32 0-57 25-57 57 0 31 25 57 57 57 31 0 57-26 57-57 0-32-26-57-57-57z m29 57c0-17-13-30-29-30-17 0-30 13-30 30 0 16 13 29 30 29 16 0 29-13 29-29z"/>
<glyph glyph-name="save" unicode="&#57372;" d="M512 398l0 113-512 0 0-510 119 0 0 42-77 0 0 428 428 0 0-73z m-278-397l258 0c11 0 20 9 20 21l0 195c0 9-3 16-9 22l-60 61-1 0 0-113-161 0 0 113-47 0c-11 0-20-10-20-21l0-257c0-12 9-21 20-21z m141 299l43 0 0-91-43 0z"/>
<glyph glyph-name="add" unicode="&#57373;" d="M512 398l0 113-512 0 0-510 119 0 0 42-77 0 0 428 428 0 0-73z m-269-294l93 0 0-93c0-5 5-10 10-10l53 0c6 0 10 5 10 10l0 93 93 0c6 0 10 5 10 10l0 53c0 5-4 10-10 10l-93 0 0 93c0 6-4 10-10 10l-53 0c-5 0-10-4-10-10l0-93-93 0c-5 0-10-5-10-10l0-53c0-5 5-10 10-10z"/>
<glyph glyph-name="delete" unicode="&#57374;" d="M512 398l0 113-512 0 0-510 119 0 0 42-77 0 0 428 428 0 0-73z m-257-192l66-65-66-66c-3-4-3-10 0-14l38-38c4-3 10-3 14 0l66 66 66-66c3-3 10-3 14 0l37 38c4 4 4 10 0 14l-66 66 66 65c4 4 4 11 0 14l-37 38c-4 4-11 4-14 0l-66-66-66 66c-4 4-10 4-14 0l-38-38c-3-3-3-10 0-14z"/>
<glyph glyph-name="save-clean" unicode="&#57375;" d="M91 511l-60 0c-12 0-22-10-22-22l0-464c0-13 10-22 22-22l377 0c12 0 28 7 36 16l48 55c8 9 14 26 14 38l0 377c0 12-9 22-22 22l-49 0c-12 0-22-10-22-22l0-137c0-12-9-22-21-22l-257 0c-12 0-22 10-22 22l0 137c0 12-10 22-22 22z m203-134l40 0c12 0 22 9 22 22l0 84c0 13-10 22-22 22l-40 0c-12 0-22-9-22-22l0-84c0-13 10-22 22-22z"/>
<glyph glyph-name="reset" unicode="&#57376;" d="M512 398l0 113-512 0 0-510 119 0 0 42-77 0 0 428 428 0 0-73z m0-232c0-2-1-4-3-5-2-2-4-2-6-1l-113 38c-3 1-4 3-5 6 0 2 1 5 3 6l26 19 5 3c-8 7-17 12-27 15-9 3-20 5-31 5-13 0-25-2-36-7-11-5-21-12-29-20-9-9-16-18-21-30-4-11-7-23-7-36 0-13 3-25 7-36 5-11 12-21 21-30 8-8 18-15 29-20 11-5 23-7 36-7 16 0 31 3 44 11 14 7 25 17 34 30 1 2 3 3 5 4 3 0 5 0 6-2l40-27c2-1 3-3 3-5 1-2 0-4-1-6-7-11-16-21-25-30-10-8-20-15-32-21-11-6-23-11-35-14-13-3-26-5-39-5-21 0-42 4-61 13-19 8-36 19-50 34-14 14-26 30-34 50-8 19-13 39-13 61 0 22 5 42 13 61 8 20 20 36 34 51 14 14 31 25 50 33 19 9 40 13 61 13 22 0 42-4 61-13 19-8 36-19 50-34l2 2 27 19c2 1 4 2 7 1 2-2 4-4 4-6z"/>
<glyph glyph-name="reset-clean" unicode="&#57377;" d="M505 267c0-3-1-6-4-8-3-3-7-3-10-2l-183 62c-4 2-7 5-7 9-1 4 0 8 4 10l43 31 7 5c-13 10-27 18-43 24-15 5-32 8-50 8-20 0-40-4-58-12-18-8-34-19-48-32-14-14-24-30-32-48-8-18-12-38-12-58 0-21 4-40 12-59 8-18 18-34 32-47 14-14 30-25 48-33 18-8 38-12 58-12 26 0 49 6 71 18 22 11 40 28 54 49 2 3 5 5 9 6 4 0 7 0 10-3l64-44c3-1 4-4 5-8 1-3 0-6-2-9-12-18-25-34-41-48-15-14-32-26-50-35-19-10-38-17-58-22-20-5-41-8-62-8-35 0-68 7-99 20-31 14-58 32-81 55-23 23-41 50-54 81-14 31-20 64-20 99 0 35 6 68 20 99 13 31 31 58 54 81 23 23 50 41 81 54 31 14 64 20 99 20 35 0 68-6 99-20 30-13 57-31 80-55l4 3 42 31c4 2 7 2 12 1 4-3 6-6 6-10z"/>
<glyph glyph-name="verdict" unicode="&#57378;" d="M512 398l0 113-512 0 0-510 119 0 0 42-77 0 0 428 428 0 0-73z m-335-349l113 113c6 6 15 9 23 8l26 26-32 32c-10-7-24-5-33 4-11 10-11 27-1 37l73 73c10 10 27 10 37-1 9-9 11-23 4-33l84-84c10 7 24 5 33-4 10-10 11-27 0-37l-72-73c-10-10-27-10-37 1-10 9-11 23-5 33l-31 32-24-23c5-10 3-23-6-31l-112-113c-6-5-13-8-20-8-7 0-14 3-20 8-11 11-11 29 0 40z"/>
<glyph glyph-name="404" unicode="&#57379;" d="M512 398l0 113-512 0 0-510 119 0 0 42-77 0 0 428 428 0 0-73z m-277-394l0 32-60 0 0 20 51 83 39 0 0-79 16 0 0-24-16 0 0-32z m0 56l0 29c0 9 0 17 1 26l-1 0c-4-9-8-17-13-26l-18-29 0 0z m159 12c0-42-17-71-51-71-35 0-51 32-51 70 0 39 17 70 52 70 36 0 50-32 50-69z m-70-1c0-31 7-46 20-46 12 0 19 16 19 46 0 30-7 46-20 46-11 0-19-15-19-46z m142-67l0 32-60 0 0 20 51 83 39 0 0-79 16 0 0-24-16 0 0-32z m0 56l0 29c0 9 0 17 1 26l-1 0c-4-9-8-17-12-26l-19-29 0 0z"/>
<glyph glyph-name="list-bullet" unicode="&#57380;" d="M512 398l0 113-512 0 0-510 119 0 0 42-77 0 0 428 428 0 0-73z m-14-116l-166 0c-8 0-14-6-14-14l0-28c0-8 6-14 14-14l166 0c8 0 14 6 14 14l0 28c0 8-6 14-14 14z m0-112l-166 0c-8 0-14-6-14-14l0-28c0-8 6-14 14-14l166 0c8 0 14 6 14 14l0 28c0 8-6 14-14 14z m0-113l-166 0c-8 0-14-6-14-14l0-28c0-7 6-14 14-14l166 0c8 0 14 7 14 14l0 28c0 8-6 14-14 14z m-225 225l-28 0c-8 0-14-6-14-14l0-28c0-8 6-14 14-14l28 0c8 0 14 6 14 14l0 28c0 8-6 14-14 14z m0-112l-28 0c-8 0-14-6-14-14l0-28c0-8 6-14 14-14l28 0c8 0 14 6 14 14l0 28c0 8-6 14-14 14z m0-113l-28 0c-8 0-14-6-14-14l0-28c0-7 6-14 14-14l28 0c8 0 14 7 14 14l0 28c0 8-6 14-14 14z"/>
<glyph glyph-name="analytics1" unicode="&#57381;" d="M512 398l0 113-512 0 0-510 119 0 0 42-77 0 0 428 428 0 0-73z m-366-212c11 0 21 4 28 12l98-39c3-19 19-34 40-34 21 0 39 17 39 39 0 1 0 2 0 3l95 55c7-6 16-10 26-10 22 0 40 18 40 40 0 22-18 40-40 40-22 0-39-18-39-40 0-2 0-4 0-6l-93-54c-7 7-17 12-28 12-14 0-27-7-34-18l-92 36c0 1 0 2 0 3 0 22-18 40-40 40-22 0-40-18-40-40 0-21 18-39 40-39z m326 79c7 0 13-6 13-13 0-7-6-13-13-13-7 0-13 6-13 13 0 7 6 13 13 13z m-160-88c7 0 12-6 12-13 0-7-5-13-12-13-8 0-13 6-13 13 0 7 5 13 13 13z m-166 61c7 0 13-5 13-13 0-7-6-12-13-12-7 0-13 5-13 12 0 8 6 13 13 13z m306-77c-9 0-17 2-24 6l-67-39c-2-22-7-30-29-34l0-93 149 0 0 166c-6-4-21-6-29-6z m-181-42l-70 27c-8-5-17-8-26-8-8 0-11 3-17 7l0-144 143 0 0 93c-17 2-25 6-30 25z"/>
<glyph glyph-name="title" unicode="&#57382;" d="M512 398l0 113-512 0 0-510 119 0 0 42-77 0 0 428 428 0 0-73z m-344-283l-37 0 0 28 106 0 0-28-37 0 0-112-32 0z m117 16c0-8-6-15-16-15-10 0-17 7-17 15 0 9 7 16 17 16 10 0 16-7 16-16z m-31-128l0 100 30 0 0-100z m89 129l0-29 22 0 0-23-22 0 0-36c0-12 3-17 12-17 4 0 7 0 9 0l1-23c-4-2-12-3-21-3-10 0-18 4-23 9-6 6-9 15-9 30l0 40-13 0 0 23 13 0 0 22z m35 17l29 0 0-146-29 0z m69-106c1-12 13-19 28-19 10 0 19 2 27 4l5-21c-11-4-23-6-37-6-34 0-53 20-53 51 0 26 16 54 50 54 33 0 45-26 45-50 0-6-1-10-1-13z m36 22c0 7-3 20-17 20-13 0-19-12-20-20z"/>
<glyph glyph-name="advertise" unicode="&#57383;" d="M512 398l0 113-512 0 0-510 119 0 0 42-77 0 0 428 428 0 0-73z m-2-249l-47 68c6 12 5 25-3 36-7 10-19 16-32 16l-46 68c-2 4-5 5-8 5-4-2-6-6-6-13 2-79-75-125-76-126l-49-31c-9-7-23-26-9-48l23-33c0-1 15-24 38-18 3 1 7 3 10 5 0 0 5 5 14-9l40-60c2-3 8-9 16-7 1 0 3 1 4 2 0 0 15 9 15 18 0 15-28 45-35 52-30 27-7 41-7 42 19 12 38 21 58 27 52 14 88-4 89-4 0 0 5-3 9-1 3 1 3 2 4 3 1 3-1 6-2 8z"/>
<glyph glyph-name="comment" unicode="&#57384;" d="M512 398l0 113-512 0 0-510 119 0 0 42-77 0 0 428 428 0 0-73z m6-195c0-44-20-83-51-114l0-75-75 29c-26-10-54-15-84-15-117 0-211 78-211 175 0 96 94 174 211 174 116 0 210-78 210-174z"/>
<glyph glyph-name="pin" unicode="&#57385;" d="M512 398l0 113-512 0 0-510 119 0 0 42-77 0 0 428 428 0 0-73z m-33-222c-18 16-42 24-65 24l-70 70-50-50-51-51 70-70c0-23 8-46 24-65 3-3 8-3 11 0l66 66 66 66c3 2 2 7-1 10z m33-166c-3 10-9 26-13 39-1 4-4 8-7 12l-46 45-39-39 46-46c3-3 7-5 11-7 13-4 30-9 39-12 6-2 10 2 9 8z m-263 254l-60-60c-3-3-3-7 0-10l21-22c3-2 8-2 10 0l61 61 60 60c3 3 3 7 0 10l-22 22c-2 2-7 2-10 0z"/>
<glyph glyph-name="sitemap" unicode="&#57386;" d="M512 398l0 113-512 0 0-510 119 0 0 42-77 0 0 428 428 0 0-73z m-18-322l-10 0 0 39c0 15-12 27-27 27l-106 0 0 42 50 0c8 0 14 6 14 14l0 60c0 8-6 15-14 15l-119 0c-8 0-15-7-15-15l0-60c0-8 7-14 15-14l50 0 0-42-106 0c-15 0-28-12-28-27l0-39-10 0c-9 0-17-8-17-18l0-39c0-10 8-18 17-18l40 0c10 0 18 8 18 18l0 39c0 10-8 18-18 18l-10 0 0 39c0 4 3 8 8 8l106 0 0-47-10 0c-10 0-18-8-18-18l0-39c0-10 8-18 18-18l39 0c10 0 18 8 18 18l0 39c0 10-8 18-18 18l-10 0 0 47 106 0c4 0 8-4 8-8l0-39-10 0c-10 0-18-8-18-18l0-39c0-10 8-18 18-18l39 0c10 0 18 8 18 18l0 39c0 10-8 18-18 18z"/>
<glyph glyph-name="woo" unicode="&#57387;" d="M512 398l0 113-512 0 0-510 119 0 0 42-77 0 0 428 428 0 0-73z m-8-271c-6 11-15 17-27 20-4 0-7 1-10 1-16 0-29-9-39-26-9-14-14-30-14-48 0-13 3-24 8-33 7-11 16-18 28-20 3-1 6-1 9-1 16 0 30 8 40 25 9 15 13 31 13 48 0 14-3 25-8 34z m-22-47c-2-11-6-20-12-25-5-5-10-7-14-6-4 1-8 5-10 11-2 6-3 11-3 16 0 4 0 8 1 12 1 7 4 14 9 20 5 9 11 12 18 11 4-1 7-5 10-11 2-5 3-11 3-16 0-4-1-8-2-12z m-85 47c-6 11-15 17-27 20-3 0-6 1-9 1-16 0-30-9-40-26-9-14-13-30-13-48 0-13 3-24 8-33 6-11 15-18 27-20 3-1 6-1 9-1 17 0 30 8 40 25 9 15 13 31 13 48 0 14-2 25-8 34z m-21-47c-2-11-7-20-13-25-5-5-10-7-14-6-4 1-7 5-10 11-2 6-3 11-3 16 0 4 1 8 1 12 2 7 5 14 9 20 6 9 12 12 18 11 4-1 8-5 10-11 2-5 3-11 3-16 0-4 0-8-1-12z m-237 74c2 3 6 4 10 5 9 0 14-4 15-12 5-36 11-66 17-91l37 71c4 7 8 10 13 10 8 1 12-4 14-14 4-22 10-42 16-58 5 43 12 74 23 93 2 5 6 8 11 8 4 0 7-1 11-3 3-3 5-6 5-10 0-3 0-6-2-8-6-13-12-33-16-62-5-27-6-49-5-64 0-5 0-8-2-12-2-3-5-5-9-6-5 0-9 2-14 7-15 16-28 40-37 72-11-22-19-38-25-49-10-19-18-29-25-30-5 0-9 4-12 12-9 22-18 65-28 129-1 5 0 8 3 12z"/>
<glyph glyph-name="key" unicode="&#57388;" d="M512 398l0 113-512 0 0-510 119 0 0 42-77 0 0 428 428 0 0-73z m-109-49c-61 0-110-49-110-110 0-13 3-25 7-38l-135-135 0-65 64 0 0 39 38 0 0 38 39 0 58 58c12-3 24-6 39-6 60 0 109 49 109 109 0 61-49 110-109 110z m32-116c-22 0-39 17-39 39 0 21 17 38 39 38 22 0 38-17 38-38 0-22-16-39-38-39z"/>
<glyph glyph-name="bbpress" unicode="&#57389;" d="M512 398l0 113-512 0 0-510 119 0 0 42-77 0 0 428 428 0 0-73z m-200-319l57 56c0 0 104 0 91-134-180 0-297 0-297 0 0 0-21 128 92 134 41-41 57-56 57-56z m100 62l14 15c0 0 86 14 86-113-19-1-34 0-34 0 0 0-3 79-66 98z m-37 177c-15 0-29-4-41-12 42-10 73-48 73-93 0-18-5-36-14-50 35 8 61 39 61 76 0 44-35 79-79 79z m15-106c0-43-35-78-79-78-43 0-78 35-78 78 0 44 35 79 78 79 44 0 79-35 79-79z"/>
<glyph glyph-name="translation" unicode="&#57390;" d="M512 398l0 113-512 0 0-510 119 0 0 42-77 0 0 428 428 0 0-73z m-325-141l85 0c-2-15-10-32-24-49-9 14-15 28-18 37-1 2-3 4-5 4l-14 0c-2 0-4-1-5-3-1-1-1-3-1-5 4-10 11-31 25-52-16-16-33-28-40-32-2-2-3-5-1-8l7-11c1-2 2-3 3-3 1 0 1 0 2 0 1 0 2 0 3 1 7 4 24 16 42 34 7-7 22-20 32-26 1-1 3-2 5-1 1 0 3 1 3 3l6 13c1 3 0 6-3 7-6 4-17 11-27 22 21 24 33 47 35 69l5 0c3 0 5 3 5 6l0 15c0 3-2 6-5 6l-45 0 0 8c0 3-3 5-6 5l-14 0c-3 0-6-2-6-5l0-8-44 0c-4 0-6-3-6-6l0-15c0-3 2-6 6-6z m227-110c-1 3-3 4-6 4l-31 0c-3 0-5-1-6-4l-38-124c-1-2 0-4 1-5 1-2 3-3 4-3l20 0c3 0 5 2 6 5l8 30 39 0 9-30c1-3 3-5 6-5l21 0c2 0 3 1 5 3 1 1 1 3 0 5z m-37-74l14 55 0 0 16-55z m-253 43l14-3 0-3c3-38 23-71 56-91 18-12 40-18 62-18l0 0c0 0 0 0 0 0 15 0 31 3 45 9 1 1 2 1 2 2 0 1 0 2 0 3l-10 21c0 0-1 1-1 1-1 1-3 1-3 0-11-4-22-6-34-6-16 0-32 4-46 13-20 12-34 32-39 55l-2 7 13-3c0 0 0 0 1 0 0 0 0 0 0 0 1 0 2 0 2 1 1 1 2 2 1 3l-16 56c-1 1-2 2-3 2 0 1 0 1 0 1l0 0c-2 0-3-1-3-2l-40-42c-1-1-2-2-1-3 0-2 1-3 2-3z m217 131c0-1 0-2 1-2 1 0 2-1 3 0 11 4 22 6 33 6 16 0 32-4 46-13 20-12 35-32 40-55l2-7-14 4c0 0 0 0 0 0 0 0 0 0 0 0-1 0-2-1-3-1-1-1-1-3-1-4l17-56c0-1 1-2 3-2 0 0 0 0 0 0l0 0c1-1 2 0 3 1l40 42c1 1 1 2 1 4 0 1-2 2-3 2l-13 3 0 3c-3 38-24 71-56 91-19 12-40 18-62 18l0 0c0 0 0 0 0 0-16 0-31-3-45-9-1-1-2-1-2-2-1-1-1-2 0-3z"/>
<glyph glyph-name="database" unicode="&#57391;" d="M512 398l0 113-512 0 0-510 119 0 0 42-77 0 0 428 428 0 0-73z m-136-67c-75 0-136-22-136-50l0-40c0-28 61-50 136-50 75 0 136 22 136 50l0 40c0 28-61 50-136 50z m0-163c-71 0-131 20-136 46 0-2 0-68 0-68 0-27 61-49 136-49 75 0 136 22 136 49 0 0 0 66 0 68-5-26-64-46-136-46z m136-50c-5-26-64-46-136-46-71 0-131 20-136 46l0-67c0-28 61-50 136-50 75 0 136 22 136 50z"/>
<glyph glyph-name="font" unicode="&#57392;" d="M512 398l0 113-512 0 0-510 119 0 0 42-77 0 0 428 428 0 0-73z m-14-208l-218 0-18 38c-2 5-6 8-11 8l-4 0c-5 0-10-3-12-8l-17-38-87 0 0-4 85 0-66-143c-1-4-1-9 1-12 1-2 2-3 4-4l-24 0 0-4 367 0 0 4-24 0c0 1 1 1 2 2 2 2 3 5 3 9l0 91c-1 33-21 54-53 57l72 0z m-251-4l4 0 35-76-74 0z m-70-154l23 50 99 0 23-50c1-2 3-4 5-5l-155 0c2 1 4 3 5 5z m274 5c0-4 3-8 6-10l-33 0c10 2 19 6 27 12z m0 45c-9-20-23-29-47-29-14 0-29 6-29 23 0 17 22 19 35 19l41 0z m-93 65l1-2c2-3 5-5 9-5 3 0 6 0 9 2 15 12 27 17 41 17 29 0 33-17 33-30l0-6-41 0c-46 0-63-24-63-47 0-24 16-43 40-49l-43 0c2 1 3 2 4 4 2 3 2 8 1 12l-67 143 128 0c-17-1-33-8-50-21-5-5-6-12-2-18z"/>
<glyph glyph-name="export-import" unicode="&#57393;" d="M512 398l0 113-512 0 1-510 118 0 0 42-77 0 0 428 428 0 0-73z m-24-352l-300 0c-7 0-13-6-13-14l0-17c0-8 6-14 13-14l300 0c7 0 13 6 13 14l0 17c0 8-6 14-13 14z m-62 256c-2 2-5 4-8 4-3 0-6-2-8-4l-82-81c-4-5-4-12 0-17l12-11c4-5 12-5 16 0l42 42 0-157c0-7 6-12 12-12l16 0c7 0 12 5 12 12l0 157 42-42c4-5 12-5 16 0l12 11c4 5 4 12 0 17z m-179-233c2-2 5-3 8-3 3 0 6 1 9 3l81 82c4 4 4 12 0 16l-11 12c-5 4-13 4-17 0l-42-42 0 157c0 6-5 12-12 12l-16 0c-6 0-12-6-12-12l0-157-41 42c-5 4-13 4-17 0l-11-12c-5-4-5-12 0-17z"/>
<glyph glyph-name="advertise2" unicode="&#57395;" d="M465 221l-69 102c8 18 6 38-5 54-10 16-28 25-47 24l-70 102c-3 6-7 8-12 7-6-2-8-9-9-20 3-117-111-186-112-187l-74-47c-14-11-35-39-13-71l33-50c1-1 24-35 57-26 5 1 10 4 15 7 0 0 7 7 21-13l61-90c2-5 10-14 22-11 3 1 5 2 7 3 0 0 23 14 23 28 0 21-43 67-54 76-45 41-9 63-9 63 28 19 57 33 86 41 78 21 132-6 132-7 0 0 9-4 15-1 3 1 5 4 5 5 2 4-1 9-3 11z m-215-179l6 5-5 6 7 5 14-19-18-14-5 6 6 5z"/>
<glyph glyph-name="gear" unicode="&#57394;" d="M512 398l0 113-512 0 0-510 119 0 0 42-77 0 0 428 428 0 0-73z m-12-206l-33 5c-3 10-6 19-11 28l22 26c4 6 4 14-1 19l-13 15c-5 5-13 6-19 3l-28-18c-12 9-26 15-41 19l-6 33c-1 7-7 12-14 12l-20 0c-7 0-13-5-14-12l-6-33c-12-3-24-8-35-15l-27 19c-6 4-13 4-18-1l-14-14c-5-5-6-13-2-19l19-27c-6-11-11-22-14-35l-34-5c-7-1-12-7-12-15l0-19c0-7 5-13 12-15l34-5c2-10 6-20 11-29l-21-26c-5-6-4-14 0-19l13-15c5-5 13-6 19-2l29 18c12-9 25-15 40-18l6-34c1-7 7-12 14-12l20 0c7 0 13 5 14 12l6 34c12 3 24 7 34 14l28-20c6-4 14-4 19 1l14 14c5 5 5 13 1 19l-20 28c7 11 12 22 15 35l33 5c7 2 12 8 12 15l0 19c0 8-5 14-12 15z m-154-87c-34 0-62 28-62 63 0 34 28 62 62 62 35 0 63-28 63-62 0-35-28-63-63-63z"/>
<glyph glyph-name="publisher" unicode="&#57396;" d="M249 306c57 0 103 46 103 103 0 57-46 103-103 103-56 0-102-46-102-103 0-57 46-103 102-103z m118-25l121 52 0-160c0-49-36-103-81-122l-120-51 0 160c0 48 36 103 80 121z m-142-121c0 48-36 103-80 121l-121 52 0-160c0-49 36-103 81-122l120-51z"/>
</font>
</defs>
</svg>
